Ciarán Hinds | Stationeers v0 1 1095 5529 rar | Chris Sullivan

Movies - Other

Professor Marston And The Wonder Women 2017 1080p BluRay 6CH AAC x264 - EiE

  • Download 5x Faster
  • Download torrent
  • Direct Download
  • Rate this torrent +  |  -

Torrent info

Name:Professor Marston And The Wonder Women 2017 1080p BluRay 6CH AAC x264 - EiE

Total Size: 1.80 GB

Magnet: Magnet Link

Seeds: 5

Leechers: 30

Stream: Watch Full Movie @ Movie4u

Last Updated: 2018-01-14 13:50:54 (Update Now)

Torrent added: 2018-01-14 13:50:52



VPN For Torrents

Torrent Files List


Read Me.txt (Size: 1.80 GB) (Files: 4)

 Read Me.txt

0.78 KB

 ECLiPSE.txt

14.04 KB

 Professor Marston And The Wonder Women 2017.srt

86.58 KB

 Professor Marston And The Wonder Women 2017.mp4

1.80 GB
 

tracker

leech seeds
 

Torrent description

Professor Marston And The Wonder Women 2017 1080p BluRay 6CH AAC x264 - EiE

http://www.imdb.com/title/tt6133130/

Screenshots:

http://lensdump.com/i/oVCH3

http://lensdump.com/i/oV6EF

http://lensdump.com/i/oVJX0

http://lensdump.com/i/oVVgD



Video
ID : 1
Format : AVC
Format/Info : Advanced Video Codec
Format settings : CABAC / 4 Ref Frames
Format settings, CABAC : Yes
Format settings, RefFrames : 4 frames
Codec ID : avc1
Codec ID/Info : Advanced Video Coding
Duration : 1 h 48 min
Bit rate : 2 152 kb/s
Maximum bit rate : 17.8 Mb/s
Width : 1 912 pixels
Height : 800 pixels
Display aspect ratio : 2.40:1
Frame rate mode : Constant
Frame rate : 23.976
Color space : YUV
Chroma subsampling : 4:2:0
Bit depth : 8 bits
Scan type : Progressive
Bits/(Pixel*Frame) : 0.059
Stream size : 1.63 GiB (91%)

Audio
ID : 2
Format : AAC
Format/Info : Advanced Audio Codec
Format profile : LC
Codec ID : mp4a-40-2
Duration : 1 h 48 min
Bit rate mode : Variable
Bit rate : 218 kb/s
Maximum bit rate : 309 kb/s
Channel(s) : 6 channels
Channel positions : Front: L C R, Side: L R, LFE
Sampling rate : 48.0 kHz
Frame rate : 46.875 FPS
Compression mode : Lossy
Stream size : 169 MiB (9%)
Language : English

related torrents

Torrent name

health leech seeds Size
 


comments (0)

Main Menu